<?xml version="1.0" standalone="no"?>
<!DOCTYPE svg PUBLIC "-//W3C//DTD SVG 1.1//EN" "http://www.w3.org/Graphics/SVG/1.1/DTD/svg11.dtd" >
<svg xmlns="http://www.w3.org/2000/svg">
<metadata>Generated by IcoMoon</metadata>
<defs>
<font id="theme-icons" horiz-adv-x="1024">
<font-face units-per-em="1024" ascent="960" descent="-64" />
<missing-glyph horiz-adv-x="1024" />
<glyph unicode="&#x20;" horiz-adv-x="512" d="" />
<glyph unicode="&#xe900;" glyph-name="close" d="M1014.949 941.983c11.063-11.063 11.984-28.425 2.766-40.539l-2.766-3.164-455.139-455.091 445.433-445.473c12.068-12.068 12.068-31.635 0-43.703-11.063-11.063-28.425-11.984-40.539-2.766l-3.164 2.766-445.433 445.473-453.645-453.694c-12.068-12.068-31.635-12.068-43.703 0-11.063 11.063-11.984 28.425-2.766 40.539l2.766 3.164 453.645 453.694-463.352 463.311c-12.068 12.068-12.068 31.635 0 43.703 11.063 11.063 28.425 11.984 40.539 2.766l3.164-2.766 463.352-463.311 455.139 455.091c12.068 12.068 31.635 12.068 43.703 0z" />
<glyph unicode="&#xe901;" glyph-name="minus" d="M1001.539 470.462c12.405 0 22.462-10.056 22.462-22.462 0-11.371-8.45-20.768-19.413-22.256l-3.048-0.205h-979.077c-12.405 0-22.462 10.056-22.462 22.462 0 11.371 8.45 20.768 19.413 22.256l3.048 0.205h979.077z" />
<glyph unicode="&#xe902;" glyph-name="plus" d="M521.215 959.999c11.37 0 20.768-8.45 22.256-19.414l0.205-3.048-0.024-467.821 457.889-0.023c12.406 0 22.462-10.056 22.462-22.462 0-11.37-8.45-20.768-19.414-22.256l-3.048-0.205-457.889 0.023 0.024-466.333c0-12.406-10.056-22.462-22.462-22.462-11.37 0-20.768 8.45-22.256 19.414l-0.205 3.048-0.024 466.333-476.266-0.023c-12.406 0-22.462 10.056-22.462 22.462 0 11.37 8.45 20.768 19.414 22.256l3.048 0.205 476.266 0.023 0.024 467.821c0 12.406 10.056 22.462 22.462 22.462z" />
<glyph unicode="&#xe903;" glyph-name="menu" d="M1001.539 201.143c12.405 0 22.461-12.28 22.461-27.429 0-13.886-8.45-25.361-19.414-27.179l-3.047-0.25h-979.079c-12.405 0-22.461 12.28-22.461 27.429 0 13.886 8.45 25.361 19.414 27.179l3.047 0.25h979.079zM1001.539 475.429c12.405 0 22.461-12.28 22.461-27.429 0-13.886-8.45-25.361-19.414-27.179l-3.047-0.25h-979.079c-12.405 0-22.461 12.28-22.461 27.429 0 13.886 8.45 25.361 19.414 27.179l3.047 0.25h979.079zM1001.539 749.715c12.405 0 22.461-12.28 22.461-27.429 0-13.886-8.45-25.361-19.414-27.179l-3.047-0.25h-979.079c-12.405 0-22.461 12.28-22.461 27.429 0 13.886 8.45 25.361 19.414 27.179l3.047 0.25h979.079z" />
<glyph unicode="&#xe904;" glyph-name="bag" d="M511.983 959.999c107.721 0 196.178-86.22 199.816-193.099l0.116-6.85-0.016-112.097 156.681-0.006c9.269 0 17.381-5.881 20.395-14.417l0.81-2.94 102.572-508.454c18.2-96.209-54.914-186.137-152.753-186.137v0h-655.251c-97.84 0-170.952 89.928-152.703 186.394v0l102.522 508.197c2.037 10.096 10.908 17.355 21.207 17.355v0l156.639 0.006 0.027 112.097c0 110.021 89.92 199.948 199.932 199.948zM850.855 604.686h-677.771l-98.964-490.589c-12.847-67.913 36.976-131.4 104.709-134.694v0l5.53-0.134h655.251c70.525 0 123.433 65.078 110.289 134.57v0l-99.043 490.846zM511.983 916.731c-84.016 0-153.216-67.156-156.54-150.408l-0.125-6.274-0.027-112.097h313.343l0.016 112.097c0 86.125-70.55 156.681-156.665 156.681z" />
<glyph unicode="&#xe905;" glyph-name="natural" d="M984.512 839.003c36.522-31.575 40.534-86.779 8.959-123.302l-2.101-2.343-151.582-163.021 124.066-0.015c33.218 0 60.147-26.928 60.147-60.147v-305.897c0-83.046-67.321-150.366-150.366-150.366h-723.267c-83.046 0-150.366 67.321-150.366 150.366v305.897c0 33.218 26.928 60.147 60.147 60.147l513.752 0.015 281.285 283.697c35.098 35.401 91.618 37.573 129.329 4.97zM963.854 509.899h-903.707c-9.987 0-18.24-7.421-19.545-17.048l-0.18-2.677v-305.897c0-58.881 46.286-106.952 104.458-109.811l5.488-0.135h723.267c58.881 0 106.952 46.286 109.811 104.458l0.135 5.488v305.897c0 9.987-7.421 18.24-17.048 19.545l-2.677 0.18zM887.353 808.782l-3.466-3.208-253.076-255.238h153.816l178.266 191.801c16.975 19.635 14.818 49.313-4.816 66.288-20.432 17.663-50.486 17.534-70.724 0.357z" />
<glyph unicode="&#xe906;" glyph-name="organic" d="M519.151 958.82l6.684-2.423 6.624-2.571c10.176-4.038 21.471-8.919 33.61-14.67 34.646-16.407 69.288-36.54 101.733-60.625 42.836-31.801 78.479-68.036 104.552-109.028 67.787 32.539 139.49 50.57 214.542 50.57 12.294 0 22.261-9.966 22.261-22.261v0-373.134c0-269.979-222.675-488.679-497.158-488.679s-497.158 218.699-497.158 488.679v0 373.134c0 12.294 9.966 22.261 22.261 22.261 74.571 0 145.836-17.801 213.282-49.93 26.178 42.35 62.411 79.32 106.157 111.263 32.467 23.707 67.133 43.248 101.8 58.942 9.111 4.125 17.749 7.764 25.796 10.93l14.485 5.429 6.711 2.269c4.506 1.415 9.346 1.36 13.819-0.158zM964.637 774.936l-2.19-0.099c-64.572-3.767-126.768-22.363-186.064-53.087-0.575-0.435-1.199-0.816-1.847-1.171-0.919-0.502-1.856-0.932-2.807-1.292-39.632-20.992-77.946-47.413-114.795-78.434-35.346-29.755-66.763-61.676-93.826-93.571-3.779-4.454-7.361-8.775-10.742-12.951v0l-9.539-12.060-6.603-8.732-5.807-8.085c-8.832-13.012-28.005-13.012-36.837 0v0l-2.227 3.178-10.181 13.639-9.539 12.060c-3.381 4.174-6.963 8.497-10.742 12.951-27.063 31.895-58.48 63.815-93.826 93.571-37.227 31.339-75.949 57.982-116.004 79.094-0.78 0.245-1.534 0.589-2.277 0.98l-2.145 1.325c-59.002 30.423-120.869 48.835-185.088 52.582v0l-2.19 0.099v-350.259c0-242.104 197.469-439.112 443.163-444.062v0l9.473-0.095c250.071 0 452.637 198.947 452.637 444.157v0 350.259zM511.733 914.142l-4.177-1.559c-9.273-3.463-19.651-7.718-30.855-12.79-32.051-14.509-64.103-32.578-93.907-54.34-38.401-28.039-70.023-60.037-92.849-96.055 36.513-20.832 71.797-45.861 105.793-74.479 37.373-31.462 70.513-65.132 99.101-98.827 6.018-7.094 11.58-13.891 16.673-20.334v0l0.486-0.608 5.735 7.167 5.558 6.782 5.866 6.993c28.589 33.695 61.729 67.365 99.101 98.827 33.607 28.292 68.476 53.075 104.519 73.781-22.753 34.787-53.901 66.161-91.517 94.085-29.915 22.208-62.083 40.901-94.251 56.135-8.434 3.994-16.402 7.526-23.788 10.601l-11.493 4.622z" />
<glyph unicode="&#xe907;" glyph-name="star-2" d="M658.651 417.16c131.039 4.607 254.4 15.356 365.22 30.968-106.213 15.101-223.687 25.593-348.329 30.457 114.659 49.395 220.361 101.606 314.033 153.561-109.029-25.082-228.039-59.377-351.911-102.374 89.578 95.976 168.917 190.672 236.229 280.249-99.192-75.463-186.417-149.055-269.844-226.677l2.135 1.965c46.068 115.939 83.946 227.783 113.38 330.669-55.245-87.024-114.027-192.217-167.401-300.552l-9.194-20.647c-4.607 131.039-15.356 254.4-30.968 365.22-15.101-106.213-25.593-223.687-30.457-348.329-55.066 128.382-106.46 231.533-162.639 331.636l9.078-17.603c25.082-109.029 59.377-228.039 102.374-351.911-95.976 89.578-190.672 168.917-280.249 236.229 64.496-85.739 139.996-176.083 224.712-267.709-83.844 35.281-193.718 73.817-305.939 106.876l-24.731 6.247c87.026-55.247 192.218-114.030 300.553-167.402l20.646-9.193c-131.039-4.607-254.4-15.356-365.22-30.968 106.213-15.101 223.687-25.593 348.329-30.457-128.382-55.066-231.533-106.46-331.636-162.639l17.603 9.078c109.029 25.082 228.039 59.377 351.911 102.374-89.578-95.976-168.917-190.672-236.229-280.249 85.739 64.496 176.083 139.996 267.709 224.712-46.068-115.939-83.946-227.783-113.38-330.669 59.377 94.953 119.266 203.213 176.596 321.199 4.607-131.039 15.356-254.4 30.968-365.22 15.101 106.213 25.593 223.687 30.457 348.329 49.395-114.659 101.606-220.361 153.561-314.033-25.082 109.029-59.377 228.039-102.374 351.911 95.976-89.578 190.672-168.917 280.249-236.229-75.463 99.193-149.055 186.42-226.678 269.846l1.966-2.138c115.939-46.068 227.783-83.946 330.669-113.38-87.025 55.246-192.217 114.029-300.553 167.402l-20.646 9.193z" />
<glyph unicode="&#xe908;" glyph-name="star" d="M512 170.943l-211.948-234.944 16.069 315.844-315.844-15.792 234.666 211.948-234.944 211.948 315.844-16.069-15.792 315.844 211.948-234.666 211.948 234.944-16.069-315.844 315.844 15.792-234.666-211.948 234.944-211.948-315.844 16.069 15.792-315.844z" />
<glyph unicode="&#xe909;" glyph-name="vegan" d="M1003.52 919.039c11.311 0 20.48-9.169 20.48-20.48v0-346.584c0-317.632-260.726-575.015-582.217-575.015v0c-241.027 0-437.065 190.693-441.699 427.792l-0.084 8.59v173.292c0 11.311 9.169 20.48 20.48 20.48 177.593 0 330.762-103.528 400.937-252.865 5.498 312.911 264.067 564.791 582.102 564.791zM983.039 877.725l-7.67-0.354c-285.897-14.451-513.108-247.767-513.108-533.345v0l-0.043-169.719 0.043-3.573-0.015-152.43 7.685 0.327c279.647 14.135 503.145 237.671 512.783 514.694l0.244 9.358 0.080 9.293v325.75zM40.961 565.637v-152.296c0-209.819 165.689-381.559 375.141-394.623l5.186-0.253v152.617l-0.083 8.492c-4.578 205.783-168.541 372.901-375.043 385.78l-5.202 0.282z" />
<glyph unicode="&#xe90a;" glyph-name="arrow-left" d="M3.85 459.619l1.844 2.131c-0.924-0.924-1.734-1.916-2.433-2.962-0.374-0.562-0.723-1.15-1.043-1.758-0.122-0.233-0.236-0.459-0.344-0.686-0.32-0.673-0.609-1.383-0.855-2.112-0.062-0.188-0.115-0.355-0.167-0.523-0.542-1.755-0.841-3.641-0.852-5.596-0.005-0.986 0.062-1.956 0.198-2.903 0.060-0.402 0.13-0.801 0.213-1.198 0.115-0.561 0.256-1.112 0.42-1.653 0.109-0.355 0.227-0.71 0.357-1.063 0.195-0.532 0.413-1.055 0.653-1.564 0.168-0.359 0.352-0.722 0.549-1.081 0.301-0.543 0.617-1.059 0.956-1.558 0.139-0.209 0.3-0.435 0.466-0.659l0.171-0.226c0.504-0.66 1.049-1.287 1.633-1.877l207.47-207.47c7.593-7.593 19.903-7.593 27.497 0 6.903 6.903 7.53 17.705 1.883 25.316l-1.883 2.181-173.958 173.968 937.821-5.359c10.738-0.060 19.492 8.594 19.553 19.332 0.056 9.843-7.213 18.019-16.696 19.36l-2.637 0.192-938.508 5.359 174.425 174.435c6.903 6.903 7.53 17.705 1.883 25.316l-1.883 2.181c-6.903 6.903-17.705 7.53-25.316 1.883l-2.181-1.883-207.314-207.314c-0.694-0.686-1.337-1.425-1.922-2.209z" />
<glyph unicode="&#xe90b;" glyph-name="arrow-right" d="M1020.152 459.619l-1.844 2.131c0.924-0.924 1.734-1.916 2.433-2.962 0.374-0.562 0.723-1.15 1.043-1.758 0.122-0.233 0.236-0.459 0.343-0.686 0.32-0.673 0.609-1.383 0.855-2.112 0.062-0.187 0.115-0.355 0.166-0.523 0.543-1.755 0.841-3.641 0.852-5.597 0.005-0.986-0.062-1.956-0.198-2.902-0.061-0.402-0.13-0.801-0.213-1.198-0.115-0.561-0.256-1.112-0.42-1.653-0.109-0.355-0.227-0.71-0.357-1.063-0.194-0.532-0.413-1.055-0.653-1.564-0.168-0.359-0.352-0.722-0.55-1.082-0.302-0.543-0.617-1.059-0.956-1.558-0.139-0.21-0.3-0.435-0.466-0.659l-0.171-0.226c-0.504-0.66-1.049-1.286-1.633-1.877l-207.47-207.47c-7.593-7.593-19.903-7.593-27.497 0-6.903 6.903-7.53 17.705-1.883 25.316l1.883 2.181 173.957 173.968-937.82-5.359c-10.738-0.061-19.492 8.594-19.553 19.332-0.056 9.842 7.212 18.019 16.696 19.36l2.637 0.192 938.507 5.359-174.425 174.435c-6.903 6.903-7.53 17.705-1.883 25.316l1.883 2.181c6.903 6.903 17.705 7.53 25.316 1.883l2.181-1.883 207.314-207.314c0.694-0.686 1.337-1.425 1.922-2.209z" />
<glyph unicode="&#xe90c;" glyph-name="favorite" d="M251.422 908.596c-109.076-14.16-200.627-89.542-236.046-194.307-35.407-104.725-8.571-220.611 69.207-298.79l427.504-430.486 427.517 430.499c54.042 54.416 84.395 128.204 84.395 205.134s-30.353 150.717-84.396 205.134c-61.173 61.574-146.588 92.247-232.678 83.544l-8.874-1.037c-70.737-9.384-135.183-44.793-181.206-98.843l-4.767-5.725-3.419 4.199c-62.651 74.781-159.335 113.387-257.239 100.677zM495.417 758.975l16.655-25.344 16.677 25.33c41.19 62.558 108.070 103.175 182.19 110.67 74.112 7.493 147.657-18.917 200.359-71.966 46.61-46.933 72.804-110.611 72.804-177.017l-0.149-8.645c-2.168-63.268-28.073-123.481-72.659-168.375l-399.217-401.976-399.2 401.976c-67.108 67.451-90.272 167.487-59.709 257.887 30.55 90.361 109.448 155.325 203.387 167.52 93.922 12.192 186.568-30.482 238.859-110.057z" />
<glyph unicode="&#xe90d;" glyph-name="gluten" d="M147.855 811.309l2.399-2.125 376.768-386.51c57.093 79.354 148.979 130.872 252.694 130.872 11.948 0 21.634-9.686 21.634-21.634v0-124.842l-0.106-8.417c-1.79-71.271-26.256-136.798-66.298-189.268l169.784-174.228c8.34-8.555 8.164-22.252-0.391-30.593-7.778-7.582-19.805-8.126-28.193-1.734l-2.399 2.125-167.419 171.768c-51.65-51.441-120.553-84.824-197.016-90.161l-0.012-128.931c0-11.948-9.686-21.634-21.634-21.634-10.952 0-20.003 8.139-21.436 18.698l-0.197 2.935-0.012 128.931c-160.551 11.201-287.764 146.062-291.935 312.086l-0.106 8.417v124.842c0 11.948 9.686 21.634 21.634 21.634 132.865 0 246.315-84.545 292.076-203.853 4.579 12.059 9.896 23.762 15.855 35.059l-384.266 394.23c-8.34 8.555-8.164 22.252 0.391 30.593 7.778 7.582 19.805 8.126 28.193 1.734zM217.234 509.408l0.007-102.339c0-143.054 105.056-260.7 239.976-276.247l8.802-0.841-0.003 102.376-0.097 7.852c-3.794 139.456-107.447 253.067-239.869 268.325l-8.817 0.873zM535.544 351.924c-16.826-36.225-26.248-76.789-26.248-119.633v0l0.007-102.307 8.802 0.841c61.129 7.043 116.129 35.047 158.005 76.874zM758.088 509.408l-8.817-0.873c-79.2-9.126-148.109-53.432-191.518-117.41l146.616-150.369c33.728 46.363 53.711 103.921 53.711 166.311v0l0.007 102.339zM552.295 948.314l47.046-90.777c67.772-130.762 18.2-293.651-110.822-364.034-10.647-5.806-23.987-1.73-29.568 9.038l-47.046 90.777c-67.772 130.762-18.2 293.651 110.822 364.034 10.647 5.806 23.987 1.73 29.568-9.038zM524.577 907.832l-4.935-3.441c-90.372-65.062-121.895-189.732-69.323-291.164l36.387-70.154 4.898 3.39c90.372 65.062 121.895 189.732 69.323 291.164l-36.35 70.206z" />
<glyph unicode="&#xe90e;" glyph-name="heart" d="M462.18 959.999l8.299-0.13c58.197-2.111 112.633-29.297 149.285-74.554 7.738-9.554 6.265-23.572-3.289-31.309s-23.572-6.265-31.309 3.289c-28.554 35.258-70.963 56.438-116.299 58.082s-89.169-16.407-120.201-49.504c-8.79-9.374-23.667-9.38-32.464-0.015-44.133 46.983-112.478 62.248-172.405 38.51s-99.283-81.67-99.274-146.136c0-20.196 4.579-41.884 13.552-64.911 22.119-56.757 69.589-118.892 134.801-182.392 33.293-32.42 69.040-63.088 104.789-91 6.254-4.883 12.283-9.504 18.047-13.847l16.718-12.333 7.159 5.209c15.716 11.595 32.847 24.831 50.797 39.464 9.529 7.769 23.551 6.341 31.319-3.187s6.341-23.551-3.187-31.319c-14.824-12.086-29.114-23.252-42.568-33.382l-17.688-13.081-11.172-7.903-3.91-4.118c-49.95-55.127-49.949-139.408 0.023-194.557l4.992-5.244c50.83-51.006 68.216-126.488 44.823-194.595-3.994-11.628-16.657-17.816-28.285-13.821s-17.816 16.657-13.821 28.285c17.099 49.782 5.687 104.722-29.309 143.494l-4.918 5.185c-67.768 67.784-73.462 174.135-17.083 248.399l-0.203 0.133-14.071 10.525-15.063 11.598c-36.946 28.846-73.894 60.547-108.451 94.196-69.367 67.545-120.335 134.261-145.223 198.123-10.876 27.909-16.591 54.981-16.591 81.074-0.010 82.724 50.494 157.066 127.4 187.531 66.983 26.534 142.162 15.096 197.866-28.134l7.161-5.827 1.796 1.534c33.569 27.962 75.408 44.308 119.18 46.432l8.778 0.234zM570.003 754.801c58.532 20.488 122.711 7.019 167.88-33.245v0l2.626-2.446 2.684 2.446c45.169 40.264 109.348 53.732 167.88 33.245 67.896-23.766 113.24-87.988 112.925-159.828 0-63.877-40.752-133.466-110.293-206.974-45.935-48.556-98.373-92.611-146.987-128.181v0l-8.249-5.962-2.079-1.423-4.529-4.839c-44.13-49.261-44.038-124.104 0.235-173.28l4.737-4.994c29.216-29.332 46.862-68.225 49.697-109.528 0.842-12.265-8.42-22.89-20.685-23.732s-22.89 8.42-23.732 20.685c-1.939 28.25-13.229 54.979-31.96 75.997l-4.837 5.133c-61.719 61.752-67.449 158.317-17.114 226.536l-8.582 6.368c-44.297 33.468-90.906 73.522-132.248 117.223-69.539 73.508-110.292 143.098-110.292 206.875-0.317 71.938 45.029 136.162 112.925 159.927zM723.074 672.596c-32.829 41.538-88.392 57.675-138.36 40.184s-83.345-64.759-83.112-117.806c0-62.188 52.642-136.631 128.875-208.449v0l15.552-14.325c21.134-19.041 43.807-37.824 67.47-56.068v0l17.925-13.578 9.085-6.705 9.079 6.657c3.172 2.361 6.329 4.733 9.47 7.113v0l18.643 14.401 18.199 14.607c101.761 83.299 179.254 175.051 183.397 250.179v0l0.179 6.265c0.233 52.948-33.142 100.215-83.112 117.705s-105.531 1.354-138.36-40.184v0l-17.464-22.097z" />
<glyph unicode="&#xe90f;" glyph-name="account" d="M760.388 408.685c120.336-58.552 196.85-181.152 196.83-315.675 0-7.505-2.95-14.693-8.182-19.945-18.216-18.285-53.915-44.345-108.135-69.956-88.943-42.013-198.327-67.108-328.901-67.108s-239.957 25.096-328.901 67.108c-54.219 25.611-89.919 51.671-108.135 69.956-5.232 5.251-8.182 12.438-8.182 19.942-0.033 134.508 76.451 257.104 196.76 315.675 13.598 6.62 29.858 0.693 36.319-13.239s0.676-30.591-12.921-37.21c-95.060-46.279-157.491-139.718-164.901-244.183l-0.451-8.55 8.319-6.524 4.565-3.388c19.363-14.135 43.137-28.382 71.451-41.756 81.858-38.666 183.463-61.977 306.075-61.977s224.218 23.311 306.075 61.977c28.314 13.374 52.087 27.621 71.451 41.756l4.565 3.388 8.282 6.524-0.416 8.549c-7.174 100.994-65.774 191.676-155.559 239.398l-9.399 4.782c-13.599 6.617-19.387 23.275-12.929 37.207s22.718 19.863 36.316 13.246zM512.001 960c139.225 0 252.313-113.513 252.313-253.828 0-150.949-119.592-318.371-252.313-318.371s-252.313 167.423-252.313 318.371c0 140.314 113.088 253.828 252.313 253.828zM512.001 904.146c-109.364 0-197.797-88.766-197.797-197.973 0-123.197 99.518-262.516 197.797-262.516s197.797 139.319 197.797 262.516c0 109.208-88.433 197.973-197.797 197.973z" />
<glyph unicode="&#xe910;" glyph-name="search" d="M442.038 960c244.13 0 442.037-197.906 442.037-442.037 0-114.054-43.195-218.019-114.12-296.428l247.524-247.533c8.693-8.693 8.693-22.788 0-31.482-7.903-7.903-20.271-8.622-28.985-2.156l-2.497 2.156-247.533 247.524c-78.41-70.924-182.374-114.12-296.428-114.12-244.13 0-442.037 197.906-442.037 442.037s197.906 442.037 442.037 442.037zM442.038 915.48c-219.541 0-397.515-177.973-397.515-397.515s177.973-397.515 397.515-397.515c109.56 0 208.766 44.322 280.668 116.012 0.093 0.178 0.233 0.321 0.373 0.462l0.402 0.313c71.726 71.908 116.073 171.139 116.073 280.728 0 219.541-177.973 397.515-397.515 397.515z" />
<glyph unicode="&#xe911;" glyph-name="spray" d="M72.62 911.601l2.364-2.301 180.942-203.921c4.176 0.985 8.413 1.797 12.703 2.429l0.023 161.595c0 11.27 8.375 20.583 19.239 22.058l3.021 0.203h163.572c11.27 0 20.583-8.375 22.058-19.239l0.203-3.021-0.007-161.592c81.235-11.952 143.133-88.441 143.133-180.088v0l-0.002-232.584 247.437-278.895c8.16-9.197 7.318-23.267-1.878-31.425-8.359-7.418-20.748-7.397-29.061-0.422l-2.364 2.301-214.133 241.363 0.002-269.801c0-11.27-8.375-20.583-19.239-22.058l-3.021-0.203h-449.823c-12.294 0-22.261 9.966-22.261 22.261v0 569.464c0 68.803 34.886 129.062 86.649 159.886l-170.496 192.143c-8.16 9.197-7.318 23.267 1.878 31.425 8.359 7.418 20.748 7.397 29.061 0.422zM242.485 653.412c-42.444-21.136-72.436-69.201-72.436-125.687v0l-0.013-547.204h405.296l0.017 297.732zM454.486 664.914l-162.712 0.026 283.574-319.606 0.002 182.392c0 71.783-48.437 129.969-109.313 136.566l-5.742 0.466-5.809 0.157zM754.926 590.439l2.377-2.286 81.786-91.114c8.212-9.15 7.454-23.223-1.696-31.436-8.318-7.466-20.706-7.517-29.059-0.591l-2.377 2.286-81.786 91.114c-8.212 9.15-7.454 23.223 1.696 31.436 8.318 7.466 20.706 7.517 29.059 0.591zM965.669 732.214c12.294 0 22.261-9.966 22.261-22.261 0-11.27-8.375-20.583-19.239-22.058l-3.021-0.203h-122.679c-12.294 0-22.261 9.966-22.261 22.261 0 11.27 8.375 20.583 19.239 22.058l3.021 0.203h122.679zM432.196 847.152h-119.051v-137.691h119.051v137.691zM837.393 954.305c8.318-7.466 9.701-19.776 3.714-28.827l-2.018-2.61-81.786-91.114c-8.212-9.15-22.287-9.909-31.436-1.696-8.318 7.466-9.701 19.776-3.714 28.827l2.018 2.61 81.786 91.114c8.212 9.15 22.287 9.909 31.436 1.696z" />
<glyph unicode="&#xe912;" glyph-name="sulphate" d="M512.001 959.999c282.769 0 511.999-229.229 511.999-511.999 0-146.711-61.706-279.008-160.58-372.356-0.731-0.984-1.559-1.923-2.476-2.807-1.079-1.038-2.233-1.953-3.443-2.743-91.082-83.271-212.356-134.094-345.501-134.094-282.769 0-511.999 229.229-511.999 511.999s229.229 511.999 511.999 511.999zM46.548 448c0-257.064 208.39-465.454 465.454-465.454 113.802 0 218.065 40.841 298.932 108.666l-644.191 668.952c-74.699-82.567-120.194-192.053-120.194-312.165zM512.001 913.454c-120.201 0-229.761-45.563-312.35-120.362l645.438-670.206c81.899 83.894 132.365 198.611 132.365 325.115 0 257.064-208.39 465.454-465.454 465.454z" />
<glyph unicode="&#xe913;" glyph-name="bag-new" d="M1.111 58.793l86.851 607.383c2.554 10.964 12.772 19.734 25.544 19.734h186.473v61.396c0 127.178 81.742 212.694 204.354 212.694s204.354-85.516 204.354-212.694v-61.396h201.8c12.772 0 22.99-8.771 25.544-19.734l86.851-607.383c5.109-30.698-7.663-63.589-30.653-85.516-22.99-24.12-58.752-37.276-94.514-37.276h-768.883c-35.762 0-71.524 13.156-94.514 37.276-25.544 21.927-38.316 54.818-33.208 85.516zM657.599 745.114c0 78.938-40.871 168.839-153.266 168.839s-153.266-89.901-153.266-168.839v-61.396h306.532v61.396zM70.080 1.783c15.327-13.156 35.762-21.927 56.197-21.927h771.438c22.99 0 43.425 8.771 56.197 21.927s20.435 32.891 17.881 52.625l-84.296 585.456h-751.002l-84.296-587.649c-2.554-17.542 5.109-37.276 17.881-50.433z" />
<glyph unicode="&#xe914;" glyph-name="check" d="M512 960c-282.769 0-512-229.23-512-512s229.23-512 512-512c282.769 0 512 229.23 512 512s-229.23 512-512 512zM512 917.918c259.529 0 469.918-210.389 469.918-469.918s-210.389-469.918-469.918-469.918c-259.529 0-469.918 210.389-469.918 469.918s210.389 469.918 469.918 469.918zM742.601 638.22c8.217 8.217 21.539 8.217 29.756 0 7.304-7.304 8.115-18.642 2.435-26.843l-2.435-2.914-365.563-365.563-155.152 155.152c-8.217 8.217-8.217 21.539 0 29.756 7.304 7.304 18.642 8.115 26.843 2.435l2.914-2.435 125.396-125.379 335.807 335.79z" />
<glyph unicode="&#xe915;" glyph-name="delivery" d="M678.895 691.271h217.629l127.476-255.7v-315.704h-172.238v33.945h138.293v273.764l-114.535 229.75h-196.625zM684.552 139.669v-33.945h-401.679v33.945zM656.265 860.995v-522.237h-33.945v488.293h-588.376v-673.238h84.862v-33.945h-118.807v741.127zM200.839 266.962c-64.053 0-115.978-51.925-115.978-115.978s51.925-115.978 115.978-115.978c64.053 0 115.978 51.925 115.978 115.978s-51.925 115.978-115.978 115.978zM200.839 233.017c45.306 0 82.033-36.728 82.033-82.033s-36.728-82.033-82.033-82.033c-45.306 0-82.033 36.728-82.033 82.033s36.728 82.033 82.033 82.033zM766.586 266.962c-64.053 0-115.978-51.925-115.978-115.978s51.925-115.978 115.978-115.978c64.053 0 115.978 51.925 115.978 115.978s-51.925 115.978-115.978 115.978zM766.586 233.017c45.306 0 82.033-36.728 82.033-82.033s-36.728-82.033-82.033-82.033c-45.306 0-82.033 36.728-82.033 82.033s36.728 82.033 82.033 82.033z" />
<glyph unicode="&#xe916;" glyph-name="money-bag" d="M393.797 904.281l18.569-37.763-95.592-47.002 98.795-135.987-34.049-24.729-128.142 176.434zM611.634 866.518l18.569 37.763 140.421-69.049-128.142-176.434-34.049 24.729 98.759 135.987zM341.55 960h340.9l-93.155-183.231-37.512 19.072 62.057 122.077h-203.713l62.092-122.077-37.512-19.072zM634.565 692.203h-245.131l-9.784-10.472-15.723-17.459-15.635-17.885c-2.72-3.152-5.493-6.389-8.318-9.706-32.262-37.899-64.525-78.617-94.674-120.623-34.157-47.589-63.434-93.864-86.353-137.816-34.692-66.532-53.743-125.55-53.743-175.723 0-167.207 134.118-266.52 406.795-266.52s406.795 99.313 406.795 266.52c0 50.173-19.051 109.192-53.743 175.723-22.918 43.952-52.195 90.227-86.353 137.816-30.149 42.005-62.411 82.724-94.674 120.623l-8.318 9.706-15.635 17.885-19.274 21.289-6.233 6.641zM407.777 650.134h208.412l5.322-5.854c4.591-5.107 9.449-10.584 14.539-16.404l15.932-18.472c31.557-37.070 63.114-76.9 92.531-117.883 33.077-46.084 61.322-90.727 83.226-132.735 31.841-61.063 48.975-114.144 48.975-156.266 0-140.758-113.006-224.438-364.713-224.438s-364.713 83.681-364.713 224.438c0 42.122 17.134 95.203 48.975 156.266 21.904 42.007 50.149 86.651 83.226 132.735 29.415 40.984 60.973 80.813 92.531 117.883l15.932 18.472 19.826 22.259zM533.041 535.989v-443.776h-42.082v443.776zM495.237 491.243c44.911 2.882 99.228-6.282 132.166-20.748l6.72-3.179 18.737-9.574-19.149-37.473-18.737 9.574c-24.776 12.661-76.167 22.028-117.043 19.405-45.883-2.945-69.589-18.148-69.589-45.122 0-28.294 16.555-43.107 65.379-60.202l14.842-4.96 15.114-4.718c80.634-24.903 110.953-44.234 110.953-96.176 0-56.142-37.298-88.896-96.783-97.184-42.138-5.872-95.31 0.603-145.41 15.776l-12.453 3.972-19.949 6.69 13.38 39.898 19.949-6.69c47.913-16.067 100.224-23.324 138.674-17.967 40.62 5.66 60.509 23.125 60.509 55.504 0 20.423-12.748 32.101-52.476 46.447l-13.459 4.632-22.39 7.063c-83.719 25.92-117.962 49.243-117.962 107.915 0 54.858 43.778 82.935 108.976 87.118z" />
<glyph unicode="&#xe917;" glyph-name="check-1" d="M209.175-23.452c24.458 0 66.4 24.243 125.828 72.729s131.406 117.139 215.935 205.959v0l404.838 426.077c45.482 47.627 68.224 96.543 68.224 146.746v0 21.24c0 25.316-3.004 43.337-9.010 54.064s-16.091 16.091-30.25 16.091c-18.879 0-41.835-8.796-68.867-26.389s-57.711-43.552-92.038-77.879v0l-408.699-404.838c-24.458-24.028-45.482-43.015-63.075-56.961s-29.607-20.918-36.043-20.918c-15.447 0-27.676 11.8-36.686 35.399s-16.949 65.22-23.814 124.863c-0.429 4.291-1.073 10.942-1.931 19.952-8.153 77.663-33.468 116.496-75.947 116.496-44.625 0-85.387-18.773-122.288-56.317s-55.351-78.414-55.351-122.61c0-81.096 4.184-156.399 12.551-225.911s17.271-114.994 26.71-136.448c11.156-25.744 35.828-50.739 74.016-74.982s70.155-36.364 95.899-36.364z" />
<glyph unicode="&#xe918;" glyph-name="arrow-left-1" d="M736.388 929.159c8.798-8.115 10.268-21.204 4.074-30.964l-2.683-3.488-412.050-446.756 412.050-446.659c9.13-9.898 8.507-25.322-1.391-34.452-8.798-8.115-21.963-8.525-31.192-1.564l-3.26 2.955-429.006 465.319-2.11 3.419-1.514 3.721-0.736 2.997-0.381 4.341 0.386 4.301 0.73 2.978 0.93 2.486 2.268 4.063 2.146 2.674 427.287 463.238c9.13 9.898 24.554 10.52 34.452 1.391z" />
<glyph unicode="&#xe919;" glyph-name="arrow-right-1" d="M276.041 929.159c-8.798-8.115-10.268-21.204-4.074-30.964l2.683-3.488 412.050-446.756-412.050-446.659c-9.13-9.898-8.507-25.322 1.391-34.452 8.798-8.115 21.963-8.525 31.192-1.564l3.26 2.955 429.006 465.319 2.11 3.419 1.514 3.721 0.736 2.997 0.381 4.341-0.386 4.301-0.73 2.978-0.93 2.486-2.268 4.063-2.146 2.674-427.287 463.238c-9.13 9.898-24.554 10.52-34.452 1.391z" />
<glyph unicode="&#xe91a;" glyph-name="barcode" d="M43.676 926.968c8.108 0 14.852-5.843 16.25-13.547l0.266-2.969v-924.903c0-9.122-7.395-16.516-16.516-16.516-8.108 0-14.852 5.843-16.25 13.547l-0.266 2.969v924.903c0 9.122 7.395 16.516 16.516 16.516zM980.324 926.968c8.108 0 14.852-5.843 16.25-13.547l0.266-2.969v-924.903c0-9.122-7.395-16.516-16.516-16.516-8.108 0-14.852 5.843-16.25 13.547l-0.266 2.969v924.903c0 9.122 7.395 16.516 16.516 16.516zM512 926.968c8.108 0 14.852-5.843 16.25-13.547l0.266-2.969v-714.698c0-9.122-7.395-16.516-16.516-16.516-8.108 0-14.852 5.843-16.25 13.547l-0.266 2.969v714.698c0 9.122 7.395 16.516 16.516 16.516zM639.725 926.968c8.108 0 14.852-5.843 16.25-13.547l0.266-2.969v-714.698c0-9.122-7.395-16.516-16.516-16.516-8.108 0-14.852 5.843-16.25 13.547l-0.266 2.969v714.698c0 9.122 7.395 16.516 16.516 16.516zM171.401 926.968c8.108 0 14.852-5.843 16.25-13.547l0.266-2.969v-714.698c0-9.122-7.395-16.516-16.516-16.516-8.108 0-14.852 5.843-16.25 13.547l-0.266 2.969v714.698c0 9.122 7.395 16.516 16.516 16.516zM852.599 926.968c9.122 0 16.516-7.395 16.516-16.516v0-714.698c0-9.122-7.395-16.516-16.516-16.516v0h-85.15c-9.122 0-16.516 7.395-16.516 16.516v0 714.698c0 9.122 7.395 16.516 16.516 16.516v0zM384.275 926.968c9.122 0 16.516-7.395 16.516-16.516v0-714.698c0-9.122-7.395-16.516-16.516-16.516v0h-85.15c-9.122 0-16.516 7.395-16.516 16.516v0 714.698c0 9.122 7.395 16.516 16.516 16.516v0zM836.079 893.935h-52.125v-681.654h52.125v681.654zM367.748 893.935h-52.125v-681.654h52.125v681.654z" />
<glyph unicode="&#xe91b;" glyph-name="credit-locked" d="M719.553 464.516c61.287 0 109.033-45.649 112.148-105.911l0.162-6.285-0.011-63.206 47.357-0.011c8.108 0 14.852-5.843 16.25-13.547l0.266-2.969v-287.039c0-9.122-7.395-16.516-16.516-16.516v0h-319.312c-9.122 0-16.516 7.395-16.516 16.516v0 287.039c0 9.122 7.395 16.516 16.516 16.516v0l47.335 0.011 0.011 63.206c0 63.344 48.909 112.196 112.31 112.196zM862.67 256.083h-286.258v-253.985h286.258v253.985zM719.553 177.477c8.108 0 14.852-5.843 16.25-13.547l0.266-2.969v-47.84c0-9.122-7.395-16.516-16.516-16.516-8.108 0-14.852 5.843-16.25 13.547l-0.266 2.969v47.84c0 9.122 7.395 16.516 16.516 16.516zM927.105 926.968c42.61 0 77.486-33.132 80.207-75.022l0.171-5.28v-574.078c0-9.122-7.395-16.516-16.516-16.516-8.108 0-14.852 5.843-16.25 13.547l-0.266 2.969v270.546h-924.903v-270.546c0-24.565 18.775-44.763 42.786-47.054l4.56-0.216h351.243c9.122 0 16.516-7.395 16.516-16.516 0-8.108-5.843-14.852-13.547-16.25l-2.969-0.266h-351.243c-42.61 0-77.486 33.132-80.207 75.022l-0.171 5.28v574.078c0 42.578 33.171 77.413 75.094 80.132l5.284 0.171h830.211zM719.553 431.484c-43.284 0-76.416-31.291-79.101-73.586l-0.176-5.577-0.011-63.206h158.555l0.011 63.206c0 45.092-34.112 79.164-79.277 79.164zM384.275 384.783c9.122 0 16.516-7.395 16.516-16.516 0-8.108-5.843-14.852-13.547-16.25l-2.969-0.266h-223.518c-9.122 0-16.516 7.395-16.516 16.516 0 8.108 5.843 14.852 13.547 16.25l2.969 0.266h223.518zM974.452 702.58h-924.903v-126.414h924.903v126.414zM927.105 893.935h-830.211c-24.612 0-44.836-18.753-47.13-42.719l-0.217-4.551v-111.053h924.903v111.053c0 24.565-18.775 44.763-42.786 47.054l-4.56 0.216z" />
<glyph unicode="&#xe91c;" glyph-name="phone" d="M178.001 955.241l-3.31-1.527c-18.142-4.478-67.517-42.986-102.522-86.739l-7.376-9.523c-47.995-64.058-72.28-139.427-62.35-223.882l0.17-1.064-0.13 1.479c6.407-69.265 62.19-167.121 141.471-267.673l17.995-22.379c18.36-22.402 37.786-44.842 57.994-67.037l20.458-22.102c3.45-3.666 6.918-7.324 10.405-10.97l21.121-21.738c3.552-3.597 7.12-7.182 10.701-10.752l21.643-21.231c10.894-10.517 21.888-20.878 32.948-31.047l22.196-20.071c3.711-3.299 7.426-6.574 11.144-9.825l22.339-19.187c7.453-6.288 14.907-12.464 22.356-18.517l22.309-17.786 22.199-16.989c18.436-13.809 36.692-26.725 54.602-38.58l21.318-13.709c59.872-37.341 115.001-61.684 158.93-66.562 156.628-15.046 298.856 97.712 323.706 172.262l2.003 5.791c12.766 34.207-3.913 66.62-74.94 123.456l-20.558 15.446-19.398 14.167-18.289 12.88c-2.958 2.039-5.873 4.024-8.745 5.955l-16.722 10.933c-73.005 46.256-116.242 52.734-150.832 15.832l-28.072-31.6c-44.927-50.137-73.91-64.496-113.046-44.927-14.692 7.346-37.968 25.068-64.892 48.3l-18.435 16.251c-3.144 2.827-6.321 5.709-9.521 8.638l-19.448 18.101c-3.272 3.095-6.557 6.224-9.844 9.382l-19.728 19.228-19.509 19.58-18.965 19.611c-3.097 3.253-6.159 6.494-9.177 9.718l-17.54 19.058c-31.012 34.332-55.187 64.786-63.512 82.479-19.299 36.708-5.128 66.905 42.832 109.772l32.893 27.976c40.385 36.991 33.63 78.622-19.606 158.603l-11.677 17.106c-2.057 2.946-4.168 5.94-6.335 8.984l-13.664 18.872-23.29 31.093c-56.776 70.95-90.476 88.627-122.297 74.464zM206.544 915.894c13.051-6.846 31.407-23.714 55.617-53.088l5.86-7.203 14.608-19.419 13.234-18.029 11.883-16.697 10.555-15.425c3.3-4.936 6.382-9.67 9.252-14.21l7.971-13.054 6.714-11.957 5.48-10.917c12.99-27.777 13.073-45.088 2.252-56.912l-2.609-2.527-25.030-21.095c-66.608-57.418-91.615-104.827-59.818-165.24 10.868-23.115 43.062-62.935 82.832-105.917l18.843-20.012 19.618-20.166c3.318-3.357 6.655-6.708 10.006-10.047l20.218-19.84c10.14-9.798 20.29-19.376 30.279-28.567l19.715-17.818c35.57-31.54 67.477-56.391 87.387-66.347 58.506-29.254 102.287-9.892 155.182 46.927l31.138 34.87c18.006 21.243 50.256 14.455 111.297-25.264l15.868-10.619 17.118-12.009c2.96-2.118 5.975-4.295 9.044-6.531l19.088-14.124c3.295-2.473 6.647-5.005 10.058-7.598 33.824-27.074 52.891-47.387 60.218-61.625 3.703-7.197 3.694-9.481 1.545-15.24l-2.139-5.903c-0.291-0.92-0.551-1.826-0.783-2.749-0.655-1.921-3.004-5.687-6.698-10.706l-6.507-8.397-8.266-9.837c-13.586-15.615-32.225-34.599-51.96-50.246-59.063-46.826-128.24-71.356-206.787-63.811l-7.524 1.037c-54.283 8.872-127.626 49.803-205.478 108.226l-22.354 17.156c-3.742 2.934-7.491 5.905-11.246 8.911l-22.581 18.442c-15.081 12.557-30.2 25.623-45.256 39.097l-22.524 20.505-22.355 21.041c-7.415 7.095-14.789 14.266-22.11 21.503l-21.79 21.888c-7.201 7.352-14.337 14.756-21.394 22.198l-20.923 22.433c-24.105 26.279-47.095 52.882-68.43 79.271l-17.869 22.554-16.983 22.373c-60.554 81.61-101.72 158.051-106.763 212.574l-0.147 0.595c-9.042 76.901 14.587 144.994 61.034 203.051 12.321 15.401 26.806 30.104 40.238 42.237l11.181 9.726 10.217 8.205 8.802 6.423c3.972 2.721 7.245 4.676 9.566 5.717l5.39 1.907 5.117 2.224c3.559 1.584 5.151 1.591 11.897-1.947z" />
<glyph unicode="&#xe91d;" glyph-name="rate" d="M362.495 611.57l-311.669-6.557c-47.763-5.264-66.241-67.294-26.517-97.427l244.236-185.193-88.726-293.333-1.325-5.164c-10.471-49.37 46.095-82.314 84.607-55.214l251.484 174.978 251.639-175.080 4.389-2.786c45.557-26.363 96.626 21.775 77.21 68.524l-87.236 288.074 244.257 185.195 4.005 3.307c36.617 32.945 12.804 93.386-35.709 94.465l-306.504 6.25-100.64 289.508c-16.903 48.487-85.72 49.13-102.788 0.044l-100.714-289.591zM528.996 888.236l105.102-302.355c2.69-7.738 9.912-12.986 18.103-13.154l320.104-6.537c14.042-0.313 20.695-18.418 8.871-27.381l-255.092-193.42c-6.531-4.952-9.289-13.447-6.912-21.291l91.813-302.973c6.266-15.339-9.327-29.426-22.418-20.36l-262.755 182.877c-6.725 4.681-15.653 4.682-22.379 0.001l-262.794-182.859c-11.025-7.758-27.684 2.442-23.313 16.955l92.705 306.363c2.373 7.843-0.385 16.334-6.915 21.284l-255.134 193.419c-11.549 8.761-5.593 27.063 8.901 27.382l320.076 6.497c8.192 0.166 15.415 5.413 18.106 13.152l105.15 302.46c4.789 13.774 24.022 13.595 28.782-0.059z" />
<glyph unicode="&#xe91e;" glyph-name="shop" d="M502.944 483.337c7.518 9.294 21.691 9.295 29.21 0.001 29.036-35.888 72.725-56.742 118.897-56.742s89.865 20.855 118.894 56.74c6.551 8.098 18.199 9.166 26.078 3.069l2.761-2.623 5.591-6.5c27.092-29.784 64.794-47.645 104.852-49.86l8.617-0.234h5.097c9.223 0 16.893-6.646 18.483-15.41l0.303-3.377v-371.673c0-15.38-6.102-30.153-16.97-41.021-9.509-9.51-22.009-15.37-35.289-16.688l-5.733-0.284h-193.684c-15.38 0-30.153 6.102-41.021 16.97-9.51 9.509-15.37 22.009-16.688 35.289l-0.284 5.733v92.135c0 32.389-13.749 63.252-37.841 84.985-24.092 21.692-56.221 32.17-87.934 28.907-57.324-7.572-100.498-55.152-103.132-112.459l-0.12-6.921v-87.038c0-15.38-6.102-30.153-16.97-41.021-9.509-9.51-22.009-15.37-35.289-16.688l-5.733-0.284h-193.684c-15.38 0-30.153 6.102-41.021 16.97-9.51 9.509-15.37 22.009-16.688 35.289l-0.284 5.733v372.062c0 9.223 6.646 16.893 15.41 18.483l3.377 0.303h5.115c46.012-0.045 89.622 20.606 118.736 56.226 7.541 9.226 21.656 9.191 29.151-0.073 29.036-35.888 72.725-56.742 118.897-56.742s89.865 20.856 118.896 56.742zM784.625 443.792l-5.003-4.844c-34.858-31.883-80.642-49.924-128.572-49.924-44.733 0-87.597 15.715-121.456 43.733l-7.116 6.191-4.957 4.769-4.902-4.768c-30.032-27.469-68.174-44.664-108.811-48.899l-10.208-0.787-9.555-0.239c-44.733 0-87.597 15.715-121.456 43.733l-7.116 6.191-5.020 4.806-4.929-4.715c-27.71-25.123-62.229-41.553-99.183-47.223l-10.136-1.278-5.306-0.363 0.033-353.84c0-3.258 0.775-6.436 2.218-9.282l1.662-2.726 2.085-2.446c3.050-3.050 6.996-5.038 11.232-5.711l3.222-0.255h193.684c5.429 0 10.642 2.152 14.454 5.965 3.050 3.050 5.038 6.996 5.711 11.232l0.255 3.222 0.001 86.826c-0.891 79.152 57.435 146.476 136.436 156.904 42.815 4.416 85.477-9.497 117.475-38.309 29.864-26.939 47.765-64.449 50.019-104.318l0.242-8.576v-92.135c0-5.429 2.152-10.642 5.965-14.454 3.050-3.050 6.996-5.038 11.232-5.711l3.222-0.255h193.684c5.429 0 10.642 2.152 14.454 5.965 3.050 3.050 5.038 6.996 5.711 11.232l0.255 3.222-0.010 353.448-5.153 0.356c-37.192 3.664-72.441 18.196-101.503 41.767l-7.769 6.651-5.092 4.841zM478.343 916.47c9.223 0 16.893-6.646 18.483-15.41l0.303-3.377-0.004-316.395c1.293-62.323-48.207-113.933-110.528-115.226-60.098-1.247-110.233 44.736-114.897 103.901l-0.329 6.627 0.703 5.495 90.567 320.704c1.999 7.081 7.904 12.244 14.982 13.425l3.098 0.256h97.623zM297.999 916.477c11.423 0 19.944-10.009 18.671-20.912l-0.595-2.989-85.943-303.678 0.009-7.812c0.546-56.153-40.108-103.41-94.24-112.383l-6.559-0.891-6.428-0.5c-60.467-3.058-112.6 42.178-118.066 102.486-0.229 2.525 0.057 5.058 0.825 7.446l1.51 3.459 173.214 307.919c9.693 15.954 26.436 26.155 44.66 27.665l5.506 0.19h67.435zM654.378 916.47c7.358 0 13.931-4.278 16.991-10.769l1.088-2.912 90.567-320.699 0.687-5.965c-2.762-60.343-52.409-107.925-112.93-108.101-59.996 0.219-108.965 47.050-112.597 106.248l-0.216 6.627v316.785c0 9.223 6.646 16.893 15.41 18.483l3.377 0.303h97.623zM804.546 917.655c19.058 0 36.747-9.355 47.494-24.797l3.010-4.812 171.329-306.195c1.85-3.307 2.658-7.096 2.316-10.87-5.467-60.309-57.601-105.545-118.047-102.487-58.259 2.887-104.309 49.558-107.116 106.928l-0.13 6.666-0.028 8.011-85.907 303.655c-2.8 9.893 2.842 19.73 11.899 22.87l3.139 0.79 3.038 0.241h69.002zM459.549 878.918h-64.625l-85.853-303.998 0.189-3.164c3.325-35.090 30.664-62.991 65.129-67.505l5.807-0.533 5.623-0.090c39.682 0.823 71.584 32.242 73.649 71.598l0.089 5.674-0.008 298.020zM273.152 878.918l-42.848-0.012c-6.069 0.084-11.783-2.497-15.5-6.607l-1.978-2.641-169.882-301.951c5.648-33.689 33.091-59.099 66.427-62.565l5.94-0.381 5.723 0.075c38.435 1.905 68.901 32.373 71.374 70.317l0.159 5.745-0.002 10.589 0.71 5.119 79.875 282.312zM640.159 878.918h-64.625l0.006-297.949c0.143-37.704 27.821-68.883 63.89-74.479l5.761-0.668 5.602-0.226c38.433 0.112 70.36 28.964 74.909 66.546l0.234 3.002-85.778 303.773zM804.546 880.082h-44.192l79.911-282.295 0.71-5.115-0.001-10.768c-0.392-40.393 31.178-73.884 71.553-75.885 36.487-1.845 68.429 22.679 76.882 57.156l1.151 5.733-168.298 300.792c-2.393 4.277-6.198 7.466-10.649 9.117l-3.448 0.942-3.618 0.324z" />
<glyph unicode="&#xe91f;" glyph-name="comments" d="M819.718 450.905c0-59.55-50.846-106.757-112.355-106.757v0l-253.896 0.019-240.849-195.726c-20.82-16.914-51.259-4.213-55.225 20.923v0l-0.432 5.57-0.046 169.233-44.044-0.019c-25.617 0-50.419 8.307-70.319 23.474v0l-8.217 6.916c-21.551 20.009-33.82 47.508-33.82 76.367v0 334.071c0 59.55 50.846 106.757 112.355 106.757v0h594.489c61.509 0 112.355-47.208 112.355-106.757v0-98.043h90.353c59.565 0 108.987-44.262 114.025-101.312l0.422-9.621v-307.2c0-29.747-12.314-58.174-34.066-78.975-18.771-17.95-43.237-28.956-69.183-31.426l-11.198-0.532h-14.099l0.044-119.467c0-25.476-26.496-41.285-48.421-31.024l-4.964 2.838-216.108 147.652h-182.272c-16.756 0-30.693 12.075-33.583 27.998l-0.55 6.135c0 16.756 12.075 30.693 27.998 33.583l6.135 0.55h192.753c4.579 0 9.088-0.922 13.266-2.684l5.986-3.264 171.449-117.137 0.044 88.952c0 16.756 12.075 30.693 27.998 33.583l6.135 0.55h48.188c12.565 0 24.529 4.739 33.2 13.030 6.697 6.403 10.986 14.495 12.434 23.102l0.546 6.534v307.2c0 21.104-16.812 39.099-39.281 42.196l-6.899 0.47h-90.353zM707.362 823.467h-594.489c-24.893 0-44.089-17.823-44.089-38.491v0-334.071c0-9.663 4.214-19.108 12.002-26.338 8.292-7.699 19.872-12.153 32.088-12.153v0h78.222c18.851 0 34.133-15.282 34.133-34.133v0l-0.046-131.599 194.701 158.092c4.563 3.707 9.979 6.151 15.708 7.141v0l5.814 0.499h265.955c24.893 0 44.089 17.823 44.089 38.491v0 334.071c0 20.669-19.197 38.491-44.089 38.491v0z" />
<glyph unicode="&#xe920;" glyph-name="delivery-fast" d="M774.145 752.166c7.356 0 14.043-3.931 17.671-10.125l1.548-3.278 95.551-259.469 123.901-63.106c5.72-2.913 9.675-8.295 10.834-14.466l0.352-3.784v-266.999c0-10.054-7.245-18.416-16.799-20.15l-3.682-0.33h-163.84c-11.311 0-20.48 9.17-20.48 20.48 0 10.054 7.245 18.416 16.799 20.15l3.682 0.33 143.36 0.030v233.964l-119.886 61.024c-3.449 1.757-6.304 4.44-8.269 7.715l-1.657 3.459-93.381 253.598h-260.138v-559.76l77.824-0.030c10.054 0 18.416-7.245 20.15-16.799l0.33-3.682c0-10.054-7.245-18.416-16.799-20.15l-3.682-0.33h-98.304c-10.054 0-18.416 7.245-20.15 16.799l-0.33 3.682v600.748c0 10.054 7.245 18.416 16.799 20.15l3.682 0.33h294.912zM708.608 284.918c-83.785 0-151.552-69.022-151.552-153.98s67.768-153.98 151.552-153.98c83.785 0 151.552 69.022 151.552 153.98s-67.768 153.98-151.552 153.98zM708.608 243.958c60.993 0 110.592-50.517 110.592-113.019s-49.599-113.019-110.592-113.019c-60.993 0-110.592 50.517-110.592 113.019s49.599 113.019 110.592 113.019zM610.304 618.667c10.054 0 18.416-7.245 20.15-16.799l0.33-3.682v-112.995l110.592-0.024c10.054 0 18.416-7.245 20.15-16.799l0.33-3.682c0-10.054-7.245-18.416-16.799-20.15l-3.682-0.33h-131.072c-10.054 0-18.416 7.245-20.15 16.799l-0.33 3.682v133.5c0 11.311 9.17 20.48 20.48 20.48zM348.16 752.166c11.311 0 20.48-9.17 20.48-20.48 0-10.054-7.245-18.416-16.799-20.15l-3.682-0.33h-262.145c-11.311 0-20.48 9.17-20.48 20.48 0 10.054 7.245 18.416 16.799 20.15l3.682 0.33h262.145zM479.232 919.041c10.054 0 18.416-7.245 20.15-16.799l0.33-3.682v-166.874c0-11.311-9.17-20.48-20.48-20.48-10.054 0-18.416 7.245-20.15 16.799l-0.33 3.682v146.395h-438.272c-10.054 0-18.416 7.245-20.15 16.799l-0.33 3.682c0 10.054 7.245 18.416 16.799 20.15l3.682 0.33h458.753zM348.16 585.292c11.311 0 20.48-9.17 20.48-20.48 0-10.054-7.245-18.416-16.799-20.15l-3.682-0.33h-196.608c-11.311 0-20.48 9.17-20.48 20.48 0 10.054 7.245 18.416 16.799 20.15l3.682 0.33h196.608zM348.16 418.418c11.311 0 20.48-9.17 20.48-20.48 0-10.054-7.245-18.416-16.799-20.15l-3.682-0.33h-131.072c-11.311 0-20.48 9.17-20.48 20.48 0 10.054 7.245 18.416 16.799 20.15l3.682 0.33h131.072z" />
<glyph unicode="&#xe921;" glyph-name="email" d="M928.485 863.999h-832c-53.001 0-96-42.999-96-96v-640c0-53.001 42.999-96 96-96h832c53.001 0 96 42.999 96 96v640c0 53.001-42.999 96-96 96zM96.485 800h832c17.654 0 32-14.345 32-32v-640c0-17.654-14.345-32-32-32h-832c-17.654 0-32 14.345-32 32v640c0 17.654 14.345 32 32 32zM844.221 664.767c13.679 11.191 33.838 9.175 45.030-4.503 9.948-12.158 9.46-29.439-0.377-40.989l-4.126-4.042-352-288c-10.315-8.439-24.582-9.493-35.885-3.164l-4.642 3.164-352 288c-13.679 11.191-15.694 31.352-4.503 45.030 9.948 12.158 26.982 15.102 40.252 7.747l4.778-3.244 331.736-271.423 331.736 271.423zM233.858 374.627c12.497 12.497 32.758 12.497 45.255 0 11.108-11.108 12.342-28.352 3.703-40.823l-3.703-4.432-96-96c-12.497-12.497-32.758-12.497-45.255 0-11.108 11.108-12.342 28.352-3.703 40.823l3.703 4.432 96 96zM745.857 374.627c11.108 11.108 28.352 12.342 40.823 3.703l4.432-3.703 96-96c12.497-12.497 12.497-32.758 0-45.255-11.108-11.108-28.352-12.342-40.823-3.703l-4.432 3.703-96 96c-12.497 12.497-12.497 32.758 0 45.255z" />
<glyph unicode="&#xe922;" glyph-name="headset" d="M963.766 94.619c0-84.292-66.234-153.137-149.753-158.308l-10.102-0.311h-194.607c-16.633 0-30.117 13.484-30.117 30.117 0 14.785 10.654 27.083 24.704 29.632l5.414 0.485h194.607c52.18 0 94.902 39.596 99.255 89.905l0.365 8.479 0.037 21.023c-19.519-12.055-42.558-19.014-67.223-19.014v0h-97.303c-16.633 0-30.117 13.484-30.117 30.117v0 321.255c0 16.633 13.484 30.117 30.117 30.117v0h164.488v34.133c0 213.963-175.22 387.514-391.53 387.514-211.607 0-383.892-166.087-391.282-373.619l-0.247-13.895v-34.133h164.488c14.785 0 27.083-10.654 29.632-24.704l0.485-5.414v-321.255c0-16.633-13.484-30.117-30.117-30.117v0h-97.303c-70.313 0-127.421 56.563-127.421 126.495v0 289.13c0 247.359 202.317 447.749 451.766 447.749 244.558 0 443.813-192.609 451.533-433.254l0.232-14.495v-417.632zM254.795 417.883h-134.325v-194.761c0-34.098 26.143-62.265 59.853-65.869v0l7.332-0.39 67.139 0.020v261zM903.53 417.883h-134.385v-261l67.199-0.020c34.697 0 63.153 25.894 66.792 59.050v0l0.394 7.21v194.761z" />
<glyph unicode="&#xe923;" glyph-name="heart-empty" d="M511.953 782.474l-7.076 8.518c-59.448 68.538-150.489 105.756-244.485 97.636-109.736-9.479-204.175-79.084-242.548-179.074-38.474-100.257-13.611-212.916 63.722-289.27l414.092-407.774c9.071-8.932 23.636-8.919 32.69 0.031l401.364 396.742c59.367 50.976 94.125 125.554 94.285 203.973 0.394 124.935-86.056 234.393-210.559 267.185-108.716 28.634-223.113-7.327-293.834-88.706l-7.652-9.26zM801.585 835.43c104.25-27.458 176.195-118.549 175.869-222.054l-0.32-11.406c-3.273-60.63-31.559-117.735-78.953-158.49l-386.226-381.713-397.705 391.66c-64.213 63.4-84.767 156.534-52.947 239.451 31.922 83.183 110.933 141.416 203.097 149.377 92.239 7.968 180.89-35.867 227.744-112.384 9.091-14.846 30.667-14.821 39.723 0.047 54.61 89.656 165.214 133.037 269.72 105.512z" />
<glyph unicode="&#xe924;" glyph-name="heart-fill" d="M1024 621.176c0.379 119.673-82.59 224.724-202.414 256.283s-246.727-18.215-309.597-121.431c-53.951 88.107-155.723 138.43-261.48 129.294s-196.613-76.099-233.434-172.047c-36.821-95.948-13.030-203.745 61.124-276.962l433.79-427.171 420.478 415.636c58.097 49.958 91.381 121.374 91.533 196.397z" />
<glyph unicode="&#xe925;" glyph-name="play" d="M512 960c-282.77 0-512-229.23-512-512s229.23-512 512-512c282.77 0 512 229.23 512 512s-229.23 512-512 512zM512 925.867c263.918 0 477.867-213.948 477.867-477.867s-213.948-477.867-477.867-477.867c-263.918 0-477.867 213.948-477.867 477.867s213.948 477.867 477.867 477.867zM392.533 635.733v-375.467c0-13.525 14.983-21.676 26.338-14.329l290.133 187.733c10.394 6.725 10.394 21.932 0 28.657l-290.133 187.733c-11.356 7.348-26.338-0.803-26.338-14.329zM426.667 604.365l241.647-156.365-241.647-156.348v312.713z" />
</font>
</defs>
</svg>
